тна Back to MegaDB Search

x265KiP | 76 points | Aug 25 2017 01:38:40

[DOC] Planet Earth II S01 2160p UHD BluRay HDR DTS-HD MA5.1 x265-ULTRAHDCLUB [85.20GB] | Megalinks MegaDB [DOC] Planet Earth II S01 2160p UHD BluRay HDR DTS-HD MA5.1 x265-ULTRAHDCLUB [85.20GB]

Use Base64Decode to get K


Note: A reupload will not be possible


M

K: IWhRRW5UUmxfQWFjYXdVTGszOWNfamc=


Planet.Earth.II.S01E01.2160p.UHD.BluRay.HDR.DTS-HD.MA5.1.x265-ULTRAHDCLUB [14.21GB]

ZippyShare Mirror


Planet.Earth.II.S01E02.2160p.UHD.BluRay.HDR.DTS-HD.MA5.1.x265-ULTRAHDCLUB [12.27GB]

ZippyShare Mirror


Planet.Earth.II.S01E03.2160p.UHD.BluRay.HDR.DTS-HD.MA5.1.x265-ULTRAHDCLUB [16.67GB]

ZippyShare Mirror


Planet.Earth.II.S01E04.2160p.UHD.BluRay.HDR.DTS-HD.MA5.1.x265-ULTRAHDCLUB [12.70GB]

ZippyShare Mirror


Planet.Earth.II.S01E05.2160p.UHD.BluRay.HDR.DTS-HD.MA5.1.x265-ULTRAHDCLUB [15.36GB]

ZippyShare Mirror


Planet.Earth.II.S01E06.2160p.UHD.BluRay.HDR.DTS-HD.MA5.1.x265-ULTRAHDCLUB [13.98GB]

ZippyShare Mirror


~Enjoy!!

permalink


[-] Alukrad | 4 points | Aug 25 2017 04:22:00

If only I had internet that was fast enough to download this..

permalink

[-] [deleted] | 3 points | Aug 25 2017 02:05:17

Woah, I had no idea the scene groups managed to get this one ripped. Thanks!

permalink

[-] Plays_You_Wonderwall | 2 points | Aug 25 2017 01:58:48

Thanks dude!

permalink

[-] gl1tchmob | 1 points | Aug 25 2017 02:59:45

I love you!

permalink

[-] [deleted] | 1 points | Aug 25 2017 04:48:20

[deleted]

permalink

[-] Jonnythebull | 1 points | Aug 25 2017 07:55:15

85gb...right, time to make some space on my HD!

Thanks! :)

permalink

[-] fuck_jayz | 1 points | Aug 25 2017 11:22:27

Absolutely Love you! I can change the audio to english on every device I have bar my little hisense tv in my room...any tips? There is literally no menu i can find for changing the audio track :(

permalink

[-] SeekNets | 1 points | Aug 25 2017 16:45:01

This tool allows you to change the default audio or remove it, but you'll have another make room for the copy

permalink

[-] fuck_jayz | 1 points | Aug 26 2017 00:08:55

Thank you so much mate! I'll give it a shot....hopefully it doesn't make my laptop explode hahah

permalink

[-] fuck_jayz | 1 points | Aug 26 2017 00:22:23

also, do you lose any picture quality with demuxing it or will it purely get rid of the audio channels that arent needed? Won't affect picture quality at all right?

permalink

[-] SeekNets | 1 points | Aug 26 2017 04:15:46

It won't touch the quality, it's like muting the audio and placing a new one. So does to the video it gets replaced by another video. You can remove the audio that you don't need as well.

permalink

[-] fuck_jayz | 1 points | Aug 26 2017 07:59:42

ahh ok awesome!!! thanks heaps! It also decreases the file size too so thats awesome!!

permalink

[-] DontKnowHowToEnglish | 1 points | Aug 25 2017 16:10:28

Mediainfo?

permalink

[-] execrutr | 2 points | Aug 27 2017 11:07:28

General
Unique ID                   : 218578542752551218689902451850311879366 (0xA470B231900B7704812857B8CC1FCAC6)
Complete name               : Planet.Earth.II.S01E01.2160p.UHD.BluRay.HDR.DTS-HD.MA5.1.x265-ULTRAHDCLUB.mkv
Format                      : Matroska
Format version              : Version 4 / Version 2
File size                   : 14.2 GiB
Duration                    : 50 min 49 s
Overall bit rate            : 40.0 Mb/s
Movie name                  : Planet Earth II - Season 1, Episode 1: Islands (2016) [TV Mini-Series] - Release for ULTRAHDCLUB
Encoded date                : UTC 2017-04-04 21:49:02
Writing application         : mkvmerge v9.9.0 ('Pick Up') 64bit
Writing library             : libebml v1.3.4 + libmatroska v1.4.5

Video
ID                          : 1
Format                      : HEVC
Format/Info                 : High Efficiency Video Coding
Format profile              : Main [email protected]@High
Codec ID                    : V_MPEGH/ISO/HEVC
Duration                    : 50 min 49 s
Bit rate                    : 29.4 Mb/s
Width                       : 3 840 pixels
Height                      : 2 160 pixels
Display aspect ratio        : 16:9
Frame rate mode             : Constant
Frame rate                  : 25.000 FPS
Color space                 : YUV
Chroma subsampling          : 4:2:0 (Type 2)
Bit depth                   : 10 bits
Bits/(Pixel*Frame)          : 0.142
Stream size                 : 10.4 GiB (73%)
Title                       : Planet Earth II - Season 1, Episode 1: Islands (2016) [TV Mini-Series] - Release for ULTRAHDCLUB
Writing library             : x265 2.3+23-97435a0870be:[Windows][GCC 6.3.0][64 bit] 10bit
Encoding settings           : cpuid=1173503 / frame-threads=3 / numa-pools=12 / wpp / no-pmode / no-pme / no-psnr / no-ssim / log-level=2 / input-csp=1 / input-res=3840x2160 / interlace=0 / total-frames=0 / level-idc=0 / high-tier=1 / uhd-bd=0 / ref=1 / no-allow-non-conformance / repeat-headers / annexb / aud / hrd / info / hash=0 / no-temporal-layers / open-gop / min-keyint=25 / keyint=250 / bframes=3 / b-adapt=2 / b-pyramid / bframe-bias=0 / rc-lookahead=40 / lookahead-slices=0 / scenecut=40 / no-intra-refresh / ctu=32 / min-cu-size=8 / no-rect / no-amp / max-tu-size=32 / tu-inter-depth=1 / tu-intra-depth=1 / limit-tu=0 / rdoq-level=2 / dynamic-rd=0.00 / signhide / no-tskip / nr-intra=0 / nr-inter=0 / no-constrained-intra / strong-intra-smoothing / max-merge=2 / limit-refs=0 / no-limit-modes / me=2 / subme=7 / merange=57 / temporal-mvp / weightp / weightb / no-analyze-src-pics / no-deblock / no-sao / no-sao-non-deblock / rd=6 / no-early-skip / no-rskip / fast-intra / no-tskip-fast / no-cu-lossless / no-b-intra / rdpenalty=0 / psy-rd=3.00 / psy-rdoq=6.00 / no-rd-refine / analysis-mode=0 / no-lossless / cbqpoffs=0 / crqpoffs=0 / rc=crf / crf=21.0 / qcomp=0.80 / qpstep=1 / stats-write=0 / stats-read=0 / vbv-maxrate=100000 / vbv-bufsize=100000 / vbv-init=0.9 / crf-max=0.0 / crf-min=0.0 / ipratio=1.10 / pbratio=1.00 / aq-mode=3 / aq-strength=1.00 / no-cutree / zone-count=0 / no-strict-cbr / qg-size=32 / no-rc-grain / qpmax=51 / qpmin=0 / sar=0 / overscan=0 / videoformat=5 / range=0 / colorprim=9 / transfer=16 / colormatrix=9 / chromaloc=1 / chromaloc-top=2 / chromaloc-bottom=2 / display-window=0 / max-cll=0,0 / min-luma=0 / max-luma=1023 / log2-max-poc-lsb=8 / vui-timing-info / vui-hrd-info / slices=1 / opt-qp-pps / opt-ref-list-length-pps / no-multi-pass-opt-rps / scenecut-bias=0.05 / no-opt-cu-delta-qp / no-aq-motion / no-hdr / no-hdr-opt / refine-level=5
Language                    : English
Default                     : Yes
Forced                      : No
Color range                 : Limited
Color primaries             : BT.2020
Transfer characteristics    : SMPTE ST 2084
Matrix coefficients         : BT.2020 non-constant

Audio #1
ID                          : 2
Format                      : DTS
Format/Info                 : Digital Theater Systems
Format profile              : MA / Core
Mode                        : 16
Format settings, Endianness : Big
Codec ID                    : A_DTS
Duration                    : 50 min 49 s
Bit rate mode               : Variable / Constant
Bit rate                    : 3 560 kb/s / 1 509 kb/s
Channel(s)                  : 6 channels
Channel positions           : Front: L C R, Side: L R, LFE
Sampling rate               : 48.0 kHz
Frame rate                  : 93.750 FPS (512 SPF)
Bit depth                   : 24 bits
Compression mode            : Lossless / Lossy
Stream size                 : 1.26 GiB (9%)
Title                       : DTS-HD MA 5.1 @ 3560 kbps - AVO, OMiCRON
Language                    : Russian
Default                     : Yes
Forced                      : No

Audio #2
ID                          : 3
Format                      : DTS
Format/Info                 : Digital Theater Systems
Format profile              : MA / Core
Mode                        : 16
Format settings, Endianness : Big
Codec ID                    : A_DTS
Duration                    : 50 min 49 s
Bit rate mode               : Variable / Constant
Bit rate                    : 3 320 kb/s / 1 509 kb/s
Channel(s)                  : 6 channels
Channel positions           : Front: L C R, Side: L R, LFE
Sampling rate               : 48.0 kHz
Frame rate                  : 93.750 FPS (512 SPF)
Bit depth                   : 24 bits
Compression mode            : Lossless / Lossy
Stream size                 : 1.18 GiB (8%)
Title                       : DTS-HD MA 5.1 @ 3320 kbps - Blu-ray GER
Language                    : English
Default                     : No
Forced                      : No

Audio #3
ID                          : 4
Format                      : DTS
Format/Info                 : Digital Theater Systems
Format profile              : MA / Core
Mode                        : 16
Format settings, Endianness : Big
Codec ID                    : A_DTS
Duration                    : 50 min 49 s
Bit rate mode               : Variable / Constant
Bit rate                    : 3 840 kb/s / 1 509 kb/s
Channel(s)                  : 6 channels
Channel positions           : Front: L C R, Side: L R, LFE
Sampling rate               : 48.0 kHz
Frame rate                  : 93.750 FPS (512 SPF)
Bit depth                   : 24 bits
Compression mode            : Lossless / Lossy
Stream size                 : 1.34 GiB (9%)
Title                       : DTS-HD MA 5.1 @ 3840 kbps - Blu-ray GER
Language                    : German
Default                     : No
Forced                      : No

Text
ID                          : 5
Format                      : UTF-8
Codec ID                    : S_TEXT/UTF8
Codec ID/Info               : UTF-8 Plain Text
Duration                    : 50 min 3 s
Bit rate                    : 44 b/s
Count of elements           : 354
Stream size                 : 16.4 KiB (0%)
Title                       : Blu-ray UK
Language                    : English
Default                     : No
Forced                      : No

Menu
00:00:00.000                : en:00:00:00.000
00:11:57.320                : en:00:11:57.320
00:18:37.480                : en:00:18:37.480
00:27:43.840                : en:00:27:43.840
00:37:26.400                : en:00:37:26.400
00:44:24.920                : en:00:44:24.920

permalink

[-] DontKnowHowToEnglish | 2 points | Aug 27 2017 18:27:32

Thanks mate

permalink

[-] execrutr | 1 points | Aug 27 2017 20:00:08

You're welcome.

permalink

[-] sarvesh29 | 1 points | Aug 31 2017 16:02:15

How do i play it? any recommended config - video player, laptop? I have surface book i5 with dGpu.

permalink

[-] SupermanPrimeOneMill | 1 points | Sep 08 2017 01:07:49

Yeah how do you personally play this? Nothing I have will play this HEVC file. My laptop has an i7, 16gb ram, and GeForce GTX 960m 4gb ram graphics card and it still won't play this file. At least not through VLC or Kodi

permalink

[-] shabusnelik | 2 points | Oct 04 2017 08:07:56

try MPC

permalink

[-] boxopus_1 | 1 points | Sep 28 2017 17:09:07

thank you!

permalink

[-] Navarrotarro | 1 points | Nov 01 2017 20:45:26

jesus! you are my savior....and i am even more grateful for the zippyshare links thant the mega ones(i have a free account). thank for the share. Even though i only have a 1080 32'' tv it looks super beautiful, more than the 1080 rip. it is really noticeable even at 1080p on a sdr screen

permalink

[-] Joseph1338 | 1 points | Nov 06 2017 22:19:55

Thank you!!

permalink

[-] Strdwll | 1 points | Jan 07 2018 00:36:10

Anybody else getting major glitches when trying to watch these? Downloaded fine, filled up my harddrive fine, and then it glitches to hell about 30 seconds in. :'(

permalink