тна Back to MegaDB Search

Ed_ButteredToast | 57 points | Jul 26 2017 14:55:02

Easy A (2010) 1080p Bluray x265 HEVC 10bit AAC 5.1 [2.17GB] | Megalinks MegaDB Easy A (2010) 1080p Bluray x265 HEVC 10bit AAC 5.1 [2.17GB]

MRW my request for this movie went unnoticed so i found a nearly dead torrent to download it in 9hrs 30mins and proceeded to upload it in 17 hrs 45mins.

LINK HERE | Megalinks MegaDB LINK HERE

Note: | Megalinks MegaDB Note: Password to the Snahp.it link <em>and</em> | Megalinks MegaDB and the rar files is the same and is the name of the lead Actress in this movie, "emma" spelled backwards e.g "Brad = darb". Also when you access the MEGA link, replace "xxxx" with "mega". There will be 12 password protected RAR files. Use the password (same for all parts) and extracting part 1 will automatically extract all the other parts too and in the end you'll be left with a 1.87GB mkv file + 296MB folder "Featurettes" from the BluRay Disc ('Emma Stone Audition Footage', 'Gag Reel', 'The Making of Easy A', 'The School of Pop Culture' and 'Vocabulary of Hilarity - Movies of the Eighties') + 5 nice wallpapers that i included in the rar pack.

Link Encoded in Base 64

1= aHR0cHM6Ly94eHh4Lm56LyNGIVJMaEdpQktJ

2= IWZ0RUtJSlNvSHZ2ZVV0aTlKU2ZYTXc

How to decode? | Megalinks MegaDB How to decode?

Go to https://www.base64decode.org/ and paste 1 and 2 (without any space) where it says "Type or (paste) here..." and click decode. You'll receive a link in the lower box. In that link, replace xxxx with MEGA.

---

---

---

---

---

Easy A 2010 in 1080p, encoded with x265 in HEVC and AAC 5.1

English, with subtitles!

Encoded using the time consuming 2 pass, 10 bit color at 2500 kbps,

from a Blu-ray source, for the highest quality possible.

Media Information

---

General


Unique ID : 213948332615997228899262996762959591703 (0xA0F4F335685F7F6A9B43E83110F4B917)

Complete name : Easy A 2010 (1080p x265 10bit Tigole).mkv

Format : Matroska

Format version : Version 4 / Version 2

File size : 1.88 GiB

Duration : 1h 32mn

Overall bit rate : 2 913 Kbps

Movie name : Easy A

Encoded date : UTC 2016-07-13 09:00:03

Writing application : mkvmerge v9.2.0 ('Photograph') 64bit

Writing library : libebml v1.3.3 + libmatroska v1.4.4

Video


ID : 1

Format : HEVC

Format/Info : High Efficiency Video Coding

Format profile : Main [email protected]@Main

Codec ID : V_MPEGH/ISO/HEVC

Duration : 1h 32mn

Bit rate : 2 510 Kbps

Width : 1 920 pixels

Height : 1 040 pixels

Display aspect ratio : 1.85:1

Frame rate mode : Constant

Frame rate : 23.976 (24000/1001) fps

Color space : YUV

Chroma subsampling : 4:2:0

Bit depth : 10 bits

Bits/(Pixel*Frame) : 0.052

Stream size : 1.62 GiB (86%)

Writing library : x265 1.9+200-6098ba3e0cf16b11: 10bit

Encoding settings : wpp / ctu=64 / min-cu-size=8 / max-tu-size=32 / tu-intra-depth=1 / tu-inter-depth=1 / me=1 / subme=2 / merange=57 / no-rect / no-amp / max-merge=2 / temporal-mvp / no-early-skip / recursion-skip / rdpenalty=0 / no-tskip / no-tskip-fast / strong-intra-smoothing / no-lossless / no-cu-lossless / no-constrained-intra / no-fast-intra / open-gop / no-temporal-layers / interlace=0 / keyint=250 / min-keyint=23 / scenecut=40 / rc-lookahead=20 / lookahead-slices=6 / bframes=4 / bframe-bias=0 / b-adapt=2 / ref=3 / limit-refs=3 / no-limit-modes / weightp / no-weightb / aq-mode=1 / qg-size=32 / aq-strength=1.00 / cbqpoffs=0 / crqpoffs=0 / rd=3 / psy-rd=2.00 / rdoq-level=0 / psy-rdoq=0.00 / no-rd-refine / signhide / deblock=0:0 / sao / no-sao-non-deblock / b-pyramid / cutree / no-intra-refresh / rc=2 / pass / bitrate=2509 / qcomp=0.60 / qpmin=0 / qpmax=51 / qpstep=4 / cplxblur=20.0 / qblur=0.5 / ipratio=1.40 / pbratio=1.30

Default : Yes

Forced : No

Audio #1


ID : 2

Format : AAC

Format/Info : Advanced Audio Codec

Format profile : LC

Codec ID : A_AAC

Duration : 1h 32mn

Bit rate : 325 Kbps

Channel(s) : 6 channels

Channel positions : Front: L C R, Side: L R, LFE

Sampling rate : 48.0 KHz

Frame rate : 46.875 fps (1024 spf)

Compression mode : Lossy

Delay relative to video : 20ms

Stream size : 215 MiB (11%)

Language : English

Default : No

Forced : No

Audio #2


ID : 3

Format : AAC

Format/Info : Advanced Audio Codec

Format profile : HE-AAC / LC

Codec ID : A_AAC

Duration : 1h 32mn

Bit rate : 48.0 Kbps

Channel(s) : 2 channels

Channel positions : Front: L R

Sampling rate : 48.0 KHz / 24.0 KHz

Frame rate : 23.438 fps (1024 spf)

Compression mode : Lossy

Delay relative to video : 31ms

Stream size : 32.0 MiB (2%)

Language : English

Default : No

Forced : No

Text #1


ID : 4

Format : VobSub

Muxing mode : zlib

Codec ID : S_VOBSUB

Codec ID/Info : Picture based subtitle format used on DVDs

Duration : 1h 26mn

Bit rate : 10.1 Kbps

Count of elements : 1549

Stream size : 6.27 MiB (0%)

Language : English

Default : No

Forced : No

Text #2


ID : 5

Format : VobSub

Muxing mode : zlib

Codec ID : S_VOBSUB

Codec ID/Info : Picture based subtitle format used on DVDs

Duration : 1h 26mn

Bit rate : 8 765 bps

Count of elements : 1662

Stream size : 5.44 MiB (0%)

Language : German

Default : No

Forced : No

Text #3


ID : 6

Format : VobSub

Muxing mode : zlib

Codec ID : S_VOBSUB

Codec ID/Info : Picture based subtitle format used on DVDs

Duration : 43s 73ms

Bit rate : 4 792 bps

Count of elements : 9

Stream size : 25.2 KiB (0%)

Title : Forced

Language : German

Default : No

Forced : No

Text #4


ID : 7

Format : VobSub

Muxing mode : zlib

Codec ID : S_VOBSUB

Codec ID/Info : Picture based subtitle format used on DVDs

Duration : 1h 27mn

Bit rate : 9 387 bps

Count of elements : 1569

Stream size : 5.87 MiB (0%)

Language : Turkish

Default : No

Forced : No

Menu


00:00:00.000 : en:Chapter 01

00:05:36.419 : en:Chapter 02

00:11:51.585 : en:Chapter 03

00:19:00.264 : en:Chapter 04

00:21:15.649 : en:Chapter 05

00:25:07.797 : en:Chapter 06

00:29:18.006 : en:Chapter 07

00:36:36.068 : en:Chapter 08

00:42:32.508 : en:Chapter 09

00:48:14.558 : en:Chapter 10

00:53:33.084 : en:Chapter 11

01:00:58.529 : en:Chapter 12

01:05:48.945 : en:Chapter 13

01:13:18.894 : en:Chapter 14

01:17:30.062 : en:Chapter 15

01:24:46.915 : en:Chapter 16

Source


Information

Unique ID : 12384871569651997448690234594921345413 (0x9513D4FF5AF510CFBFF561DC918F185)

Complete name : SharpHD-Einfach.zu.haben_BLURAY_REMUX.mkv

File size : 20.2 GiB

Duration : 1h 32mn

Overall bit rate mode : Variable

Overall bit rate : 31.2 Mbps

permalink


[-] reptarwilleatu | 5 points | Jul 26 2017 15:44:07

thank you. i had been requesting this as well and went unnoticed also so much appreciated

permalink

[-] Ed_ButteredToast | 5 points | Jul 26 2017 16:01:14

[-] randomfa933 | 2 points | Jul 26 2017 16:01:20

thanks for sharing it took a lot of patience for this one i'm sure

permalink

[-] Ed_ButteredToast | 5 points | Jul 26 2017 16:10:11

No problem. It was a pain in the ass but now let's hope the link doesn't get taken down too quickly. My Memento link from a few days ago is still up.

permalink

[-] randomfa933 | 3 points | Jul 26 2017 16:11:29

i feel inspired to upload this one that's taken me about a week to grab, due to basically no seeders for days.. Dark Water (2002). Think anyone would be interested? would be my first upload.

permalink

[-] Ed_ButteredToast | 2 points | Jul 26 2017 16:28:02

What's your upload speed? What's the file size? Is there a data cap? If it's easy then go for it. Just leave your PC over night and don't forget to upload it on a throwaway account. Also split it in rar files but be sure to add some pictures/random txt files too so the hash sums can be changed. Apply a password on the rar files and check the option to encrypt file names too (if you're using WinRar). (It's what I've done in hopes of increasing the uptime of the link).

think anyone would be interested?

I really don't know but if it's not a big hassle then why not do it. I'm sure someone will try to look for it in this sub and will come across your post. Also people here will appreciate any kind of upload.

permalink

[-] randomfa933 | 2 points | Jul 26 2017 16:34:59

thanks for the tips! My upload speed is not that great, and the file is 8gb. I could def leave it overnight though. In the meantime I decided on something else this sub might enjoy a bit more.. Stay tuned! Definitely using all your suggestions for future uploads

permalink

[-] panui | 2 points | Jul 31 2017 11:52:08

THANK YOU SO MUCH!! I'Ve been trying to find this for so long!!!

permalink

[-] [deleted] | 2 points | Oct 05 2017 13:24:18

My Man! Nice wallpapers.

permalink

[-] ScyllaHide | 2 points | Jan 17 2018 20:30:50

still up!!!

permalink

[-] Ed_ButteredToast | 1 points | Jan 17 2018 20:43:32

Damn right! :D

permalink

[-] lawpetex | 1 points | Jul 26 2017 17:41:57

Hi do you mind PMing me the link. Could not figure out the passwords.

permalink

[-] Ed_ButteredToast | 4 points | Jul 26 2017 17:56:09

Sure! I just sent you one. Btw simply spell "emma" backwards. That's the password.

permalink

[-] [deleted] | 1 points | Jul 26 2017 18:35:52

[deleted]

permalink

[-] Ed_ButteredToast | 3 points | Jul 26 2017 18:50:33

Yes. Thanks for the headsup. It got autocorrected. I'll fix it.

permalink

[-] [deleted] | 2 points | Jul 26 2017 19:29:23

[deleted]

permalink

[-] Ed_ButteredToast | 2 points | Jul 26 2017 19:55:28

Hahaha :p

permalink

[-] lawpetex | 1 points | Jul 27 2017 05:28:00

Cheers m8. Will look into it tonight

permalink

[-] [deleted] | 1 points | Jul 26 2017 19:50:18

You are awesome, seriously. This is one of my favorite movies and my dvd got ruined during my last move. +1

permalink

[-] Ed_ButteredToast | 3 points | Jul 26 2017 21:30:50

Glad to see you're a fan of this movie. I have a 8.2GB version too. Dual Audio (Eng DTS, AC3 Russian) 12Mbps bit rate.

Here are some screenshot comparisons (use site on desktop pc) The first picture is from 8GB one and when you hover over the mouse, it shows the 2GB one.

http://screenshotcomparison.com/comparison/216905

http://screenshotcomparison.com/comparison/216906

http://screenshotcomparison.com/comparison/216908

http://screenshotcomparison.com/comparison/216910

Here's the media info for the 8GB version:

https://pastebin.com/63guUGbR

permalink

[-] [deleted] | 2 points | Jul 26 2017 21:49:14

Oh dude, that's nice. If you ever upload it and it isn't a hassle, I'd love to get the link from you. :3

permalink

[-] Ed_ButteredToast | 1 points | Jul 26 2017 22:11:21

The only problem is that my internet is shit and it's going to take months to fix it back to higher speeds in my area. I use cellular data mainly for Reddit and stuff and my DSL down speed currently is 2MB and up speed is 0.2-0.5Mb. It'll take me 3-4 days to upload it.

Is torrenting not possible for you? ISP problems? That torrent had like 20-30 seeders.

Btw, as you can see, there's not really much difference between them. Also generally x265 HEVC rips are 20-40% smaller than x264. If you're not gonna view it on a large TV screen, you're not going to notice much change between them imo.

permalink

[-] [deleted] | 1 points | Jul 27 2017 21:29:55

Oh, that totally blows. Yeah, our ISP is like on our ass for torrenting.

I think that our TV is small enough that it wouldn't make too much of a difference overall anyways. :3

permalink

[-] ScyllaHide | 2 points | Jan 17 2018 21:03:11

is there so much difference btw 8GB and this version? (8GB is just to much for a movie i maybe watch 2 times in a year.)

permalink

[-] Ed_ButteredToast | 2 points | Jan 17 2018 21:04:32

Nope. Plus this is encoded x265 HEVC hence the files size are smaller than x264 (especially if the original x264 file size was small) while retaining the same quality.

permalink

[-] ScyllaHide | 2 points | Jan 17 2018 21:05:51

yeah so i guess same quality of this in x264 would be 3.5-4.5GB.

permalink

[-] Ed_ButteredToast | 1 points | Jan 17 2018 21:08:21

I might be wrong but it will be around 6-7GB. I remember some old thread about size comparison.

permalink

[-] radiocaf | 1 points | Jul 28 2017 17:32:15

The download link isn't working for me, comes up with a 502 Bad Request error.

permalink

[-] Ed_ButteredToast | 2 points | Jul 28 2017 17:39:34

Oh no! Lemme check!

permalink

[-] Ed_ButteredToast | 2 points | Jul 28 2017 17:43:20

It's a problem from snahp.it side. MEGA seems fine. I'll PM you.

permalink

[-] radiocaf | 2 points | Jul 28 2017 19:01:16

Thank you so much!

permalink

[-] dosemeele | -2 points | Jul 27 2017 00:22:41

Looks like they released mega! Can download normally with megadownloader!

permalink