тна Back to MegaDB Search

vcdupper | 68 points | May 26 2017 03:08:44

[CARTOONS] Looney.Tunes.Volume.2.1936-1959.1080p.BluRay.REMUX.AVC.DD1.0-RARBG [45.61GB] | Megalinks MegaDB [CARTOONS] Looney.Tunes.Volume.2.1936-1959.1080p.BluRay.REMUX.AVC.DD1.0-RARBG [45.61GB]

@@PLEASE [email protected]@

THE LINK PASSWORD IS THE NAME OF THIS SUB.

STARTS WITH AN m ENDS IN s IF YOU DON'T KNOW WHERE YOU ARE.


LINK
KEY: !lIRq5ox317dGc-H2ODpNsw


@@PLEASE [email protected]@

THE LINK PASSWORD IS THE NAME OF THIS SUB.

STARTS WITH AN m ENDS IN s IF YOU DON'T KNOW WHERE YOU ARE.


50 Remastered Theatrical Shorts

A WILD HARE (1940) - Bugs Bunny & Elmer Fudd (the first cartoon to have Bugs\' personality associated with the rabbit).
BUCKAROO BUGS (1944) - Bugs Bunny
LONG-HAIRED HARE (1949) - Bugs Bunny
ALI BABA BUNNY (1957) - Bugs Bunny & Daffy Duck
SHOW BIZ BUGS (1957) - Bugs Bunny & Daffy Duck
THE WISE QUACKING DUCK (1943) - Daffy Duck
WHAT MAKES DAFFY DUCK? (1948] - Daffy Duck
BOOK REVUE (1946) - Daffy Duck
DEDUCE, YOU SAY (1956) - Daffy Duck as Dorlock Ho mes & Porky Pig as Watkins PORKY IN WACKYLAND (1938] (B&W) - Porky Pig
YOU OUGHT TO BE IN PICTURES (1940) (B&W) - Daffy Duck & Porky Pig
PORKY IN EGYPT (1938] (B&W) - Porky Pig
BACK ALLEY OPROAR (1948] - Sylvester
LITTLE RED RODENT HOOD (1952) - Sylvester
CANNED FEUD (1951) - Sylvester
GIFT WRAPPED (1952) - Tweety & Sylvester
BIRDY AND THE BEAST (1944) - Tweety & Sylvester
HOME, TWEET HOME (1950) - Tweety & Sylvester
GOING! GOING! GOSH! (1952) - Roadrunner & Coyote
ZIPPING ALONG (1953) - Roadrunner & Coyote
SCENT-IMENTAL ROMEO (1951) - Pepe Le Pew
THE FOGHORN LEGHORN (1948] - Foghorn Leghorn
THE HIGH AND THE FLIGHTY (1956) - Foghorn Leghorn & Daffy Duck
TABASCO ROAD (1957) - Speedy Gonzalas
MEXICALI SHMOES (1959) - Speedy Gonzalas
WABBIT TWOUBLE (1941) - Bugs Bunny & Elmer Fudd (voted on-line as a fan favorite)
RABBIT FIRE (1951) - Bugs & Daffy in the first of the \"pronoun trouble\" trilogy.
RABBIT SEASONING (1952) - Bugs & Daffy in the second of the \"pronoun trouble\" trilogy.
DUCK! RABBIT, DUCK! (1953) Bugs & Daffy in the third of the \"pronoun trouble\" trilogy.
DRIP-ALONG DAFFY (1951) - Daffy Duck & Porky Pig western parody.
MY LITTLE DUCKAROO (1954) - Daffy Duck & Porky Pig western parody.
BARBARY-COAST BUNNY (1956) - Bugs Bunny & Nasty Canasta
TORTOISE BEATS HARE (1941) - Bugs Bunny & Cecil Turtle, first in hare & turtle trilogy
TORTOISE WINS BY A HARE (1943) - Bugs Bunny & Cecil Turtle, second in hare & turtle trilogy
RABBIT TRANSIT (1947) - Bugs Bunny & Cecil Turtle, third in hare & turtle trilogy
PORKY\'S HARE HUNT (1938] (B&W) - Porky Pig and a white rabbit (forerunner to Bugs Bunny).
HARE-UM SCARE-UM (1939) - A hunter & rabbit, forerunners to Elmer Fudd & Bugs Bunny.
PREST-O CHANGE-O (1939) - two dogs are heckled by a magic white rabbit (forerunner to Bugs Bunny).
ELMER\'S CANDID CAMERA (1940) - Elmer Fudd hunts a gray rabbit that is not quite yet Bugs Bunny.
BUGS BUNNY GETS THE BOID (1942) - Bugs Bunny & Beaky Buzzard
THE BASHFUL BUZZARD (1945) - Beaky Buzzard
THE LION\'S BUSY (1950) - Beaky Buzzard
STRIFE WITH FATHER (1950) - Beaky Buzzard
AN ITCH IN TIME (1943) - Elmer Fudd
A HORSEFLY FLEAS (1948] - the flea from An Itch In Time
HOLLYWOOD STEPS OUT (1941) - Hollywood characters
PAGE MISS GLORY (1936) - an art deco one-shot cartoon.
ROCKET-BYE BABY (1956) - a sci-fi one-shot.
RUSSIAN RHAPSODY (1944) - wartime themed musical.
DOUGH RAY ME-OW (1948] - Louie the Parrot & Heathcliff the housecat


SCREENS:

http://imagecurl.com/viewer.php?file=39207313204015032446.png
http://imagecurl.com/viewer.php?file=04574120698567955176.png
http://imagecurl.com/viewer.php?file=56199354836547169403.png
http://imagecurl.com/viewer.php?file=93827651731197496827.png
http://imagecurl.com/viewer.php?file=75732512143606959541.png
http://imagecurl.com/viewer.php?file=31928031347600650725.png


Video
ID : 1
Format : AVC
Format/Info : Advanced Video Codec
Format profile : [email protected]
Format settings, CABAC : Yes
Format settings, ReFrames : 2 frames
Codec ID : V_MPEG4/ISO/AVC
Duration : 8mn 18s
Bit rate mode : Variable
Bit rate : 17.5 Mbps
Width : 1920 pixels
Height : 1080 pixels
Display aspect ratio : 16:9
Frame rate mode : Constant
Frame rate : 23.976 fps
Color space : YUV
Chroma subsampling : 4:2:0
Bit depth : 8 bits
Scan type : Progressive
Bits/(Pixel*Frame) : 0.353
Stream size : 1.02 GiB (97%)
Default : Yes
Forced : No

Audio
ID : 2
Format : AC-3
Format/Info : Audio Coding 3
Mode extension : CM (complete main)
Format settings, Endianness : Big
Codec ID : A_AC3
Duration : 8mn 18s
Bit rate mode : Constant
Bit rate : 192 Kbps
Channel(s) : 1 channel
Channel positions : Front: C
Sampling rate : 48.0 KHz
Bit depth : 16 bits
Compression mode : Lossy
Stream size : 11.4 MiB (1%)
Language : English
Default : Yes
Forced : No

Subtitles
ID : 3
Format : PGS
Muxing mode : zlib
Codec ID : S_HDMV/PGS
Codec ID/Info : The same subtitle format used on BDs/HD-DVDs
Language : English
Default : Yes
Forced : No

SOURCE:

https://rarbg.to/torrent/2b6sfzt

permalink


[-] n0197exe | 3 points | May 26 2017 03:27:25

That's great, Ty.

permalink

[-] Cyromaniap | 3 points | May 26 2017 03:30:41

AHHHH Yeah my man you are awesome thank you!!

permalink

[-] gdw1337 | 3 points | May 26 2017 04:20:14

thanks

permalink

[-] 1138bladerunner | 3 points | May 29 2017 04:04:12

This is so awesome! are you also uploading volume 3?

permalink

[-] vcdupper | 2 points | May 29 2017 04:13:06

Something is wrong with it, it's only like 15GB it's missing alot of the files but I can upload what's there

permalink

[-] vcdupper | 2 points | May 29 2017 04:14:34

It's supposed to have 50 cartoons but only has 22
https://rarbg.to/torrent/ulf3yzi

permalink

[-] 1138bladerunner | 2 points | May 29 2017 04:37:17

That's a shame, but then 22 more are better than none I guess.

permalink

[-] vcdupper | 2 points | May 29 2017 04:39:23

Ok I'll up it now then I'm crashing out i'll post it tomorrow

permalink

[-] 1138bladerunner | 2 points | May 29 2017 04:40:33

No rush, you're the best!

permalink

[-] 1138bladerunner | 3 points | Jun 04 2017 21:32:26

Hey /u/vcdupper, is this still happening?

permalink

[-] [deleted] | 2 points | May 26 2017 07:50:03

Ik I said "This is by far one of the best uploads ever" on the pixar mega thread but this along with vol 1 is by far THE best upload ever

permalink

[-] dosemeele | 2 points | May 26 2017 18:49:00

Thank you!

permalink

[-] civasor | 2 points | May 31 2017 19:19:10

This is what I have been waitin for :)

You re the best !!

permalink

[-] [deleted] | 1 points | May 26 2017 07:36:00

I love you

permalink

[-] PrimodialStrain | 1 points | May 26 2017 08:06:25

Thank you

permalink

[-] OshiAMV | 1 points | Aug 28 2017 21:52:13

anyone knows if there are different remastered cartoons?

permalink