тна Back to MegaDB Search

Ethan2k16 | 11 points | Apr 23 2017 05:20:05

[ANIME] Tenkai Knights dubbed TVRip [16.34 GB] | Megalinks MegaDB [ANIME] Tenkai Knights dubbed TVRip [16.34 GB]

Link: https://mega.nz/#F!7cIhxSwD
DKey: !HhAWQJqriqGcuBneznsMfw

permalink


[-] Ethan2k16 | 1 points | Apr 23 2017 05:21:17

Mediainfo:

General
Complete name                            : Tenkai Knights - 13 - Vilius Unleashed [A-M].avi
Format                                   : AVI
Format/Info                              : Audio Video Interleave
File size                                : 337 MiB
Duration                                 : 22 min 1 s
Overall bit rate                         : 2 142 kb/s
Writing application                      : Lavf55.3.100

Video
ID                                       : 0
Format                                   : MPEG-4 Visual
Format profile                           : [email protected]
Format settings, BVOP                    : No
Format settings, QPel                    : No
Format settings, GMC                     : No warppoints
Format settings, Matrix                  : Default (H.263)
Codec ID                                 : XVID
Codec ID/Hint                            : XviD
Duration                                 : 22 min 1 s
Bit rate                                 : 1 937 kb/s
Width                                    : 1 280 pixels
Height                                   : 720 pixels
Display aspect ratio                     : 16:9
Frame rate                               : 23.976 (24000/1001) FPS
Color space                              : YUV
Chroma subsampling                       : 4:2:0
Bit depth                                : 8 bits
Scan type                                : Progressive
Compression mode                         : Lossy
Bits/(Pixel*Frame)                       : 0.088
Stream size                              : 305 MiB (90%)
Title                                    : Episode 13: Vilius Uleashed
Writing library                          : XviD 64

Audio
ID                                       : 1
Format                                   : MPEG Audio
Format version                           : Version 1
Format profile                           : Layer 3
Codec ID                                 : 55
Codec ID/Hint                            : MP3
Duration                                 : 22 min 1 s
Bit rate mode                            : Constant
Bit rate                                 : 192 kb/s
Channel(s)                               : 2 channels
Sampling rate                            : 48.0 kHz
Compression mode                         : Lossy
Stream size                              : 30.2 MiB (9%)
Alignment                                : Aligned on interleaves
Interleave, duration                     : 24  ms (0.58 video frame)
Interleave, preload duration             : 24  ms
Title                                    : English Audio

permalink